Скачать через торрент Рояль в лесу Piano no Mori Фильм бесплатно в хорошем качестве torrent

Скачивайте на UnionPeer.org фильмы через торрент без регистрации. Новинки кино в хорошем качестве через торрент. На UnionPeer.org можно скачать через торрент фильмы 2014 и 2015 годов. Самые новые фильмы.

Скачать торрент Рояль в лесу Piano no Mori бесплатно через .torrent фильм мультфильм сериал

Статистика раздачи
Размер:  1.35 GB   |    Зарегистрирован:  1 месяц 4 дня   |    .torrent скачан:  27 раз   |   
Раздают:  1  
   
загрузка...
 
Автор Сообщение

Galfimbul

avatar Galfimbul


Рояль в лесу / Фортепианный лес
Оригинальное название: Piano no Mori (2018)
Английское название: The piano forest
Период трансляции: c 09.04.2018 по 02.07.2018
Страна: Япония
Жанр: драма, музыкальный
Продолжительность: 12 эп. по 25 мин.
Режиссер: Накатани Гаку
Студия:
Перевод: Субтитры
Переводчик: laci
Описание: Невероятная история рояля, сменившего несколько поколений гениальных владельцев и объединившего их судьбы, полные взлётов и падений, между собой, начинается в тот момент, когда обыкновенный хулиган и оборванец, да ещё и сын проститутки Кай Ичиносэ находит его выброшенным в лесу близ своего дома. Очарованный таинственным инструментом, он, сам того не ведая, открыл в себе необычайный, практически сказочный талант игры на фортепиано и слух, которому могли бы позавидовать многие известные музыканты его времени.
1 Chosen One
2 To Play Chopin`s Pieces
3 What Mozart Has Left.
4 The Best Piano
5 God of Competition
6 The Forest Piano
7 Reunion
8 Letter of Challenge
9 Commencement at Warsaw
10 Chopin Competition
11 The New Star of Poland
12 Fortississimo

Качество видео: HDTVRip
Формат: MP4
Видео кодек: H.264
Аудио кодек: AAC
Видео: MPEG4 Video (H264) 480x272 23.976fps 511kbps
Аудио: AAC 48000Hz stereo 128kbps
Format : MPEG-4
Format profile : Base Media
Codec ID : isom (isom/avc1)
File size : 115 MiB
Duration : 25 min
Overall bit rate mode : Variable
Overall bit rate : 644 kb/s
Encoded date : UTC 2018-07-05 11:41:16
Tagged date : UTC 2018-07-05 11:41:16

Video
ID : 1
Format : AVC
Format/Info : Advanced Video Codec
Format profile : [email protected]
Format settings, CABAC : Yes
Format settings, ReFrames : 2 frames
Codec ID : avc1
Codec ID/Info : Advanced Video Coding
Duration : 24 min
Bit rate : 512 kb/s
Maximum bit rate : 2 020 kb/s
Width : 480 pixels
Height : 272 pixels
Display aspect ratio : 16:9
Frame rate mode : Constant
Frame rate : 23.976 (24000/1001) FPS
Color space : YUV
Chroma subsampling : 4:2:0
Bit depth : 8 bits
Scan type : Progressive
Bits/(Pixel*Frame) : 0.164
Stream size : 91.5 MiB (79%)
Writing library : x264 core 65 r999kMod cc51047
Encoding settings : cabac=1 / ref=2 / deblock=1:-2:-1 / analyse=0x1:0x131 / me=umh / subme=7 / psy_rd=1.0:0.0 / mixed_ref=1 / me_range=16 / chroma_me=1 / trellis=2 / 8x8dct=0 / cqm=0 / deadzone=21,11 / chroma_qp_offset=-2 / threads=2 / thread_queue=2 / nr=0 / decimate=0 / mbaff=0 / bframes=3 / b_pyramid=0 / b_adapt=1 / b_bias=0 / direct=3 / wpredb=1 / keyint=250 / keyint_min=25 / scenecut=40(pre) / rc=2pass / bitrate=512 / ratetol=1.0 / qcomp=0.60 / qpmin=10 / qpmax=51 / qpstep=4 / cplxblur=20.0 / qblur=0.5 / ip_ratio=1.40 / pb_ratio=1.30 / aq=1:1.00
Encoded date : UTC 2018-07-05 11:41:16
Tagged date : UTC 2018-07-05 11:41:29

Audio
ID : 2
Format : AAC
Format/Info : Advanced Audio Codec
Format profile : LC
Codec ID : 40
Duration : 25 min
Bit rate mode : Variable
Bit rate : 129 kb/s
Maximum bit rate : 153 kb/s
Channel(s) : 2 channels
Channel positions : Front: L R
Sampling rate : 48.0 kHz
Frame rate : 46.875 FPS (1024 spf)
Compression mode : Lossy
Stream size : 23.0 MiB (20%)
Encoded date : UTC 2018-07-05 11:41:28
Tagged date : UTC 2018-07-05 11:41:29


Трекер:  [ 13-Июл-2018 15:36 ]

  

Скачать .torrent

Размер .torrent файла 15 KB


Размер: 1.35 GB
Хэш (hash) релиза: e0bf820dedf1e59ce01f4de22f778577a79260b6
Подписка на обновления:

Еще никто не оставлял запись к записи скачать торрент Рояль в лесу Piano no Mori . Будь первым!

!Обратная связь