Скачать через торрент Любовь - проблема для отаку Otaku ni Koi wa Muzukashii Фильм бесплатно в хорошем качестве torrent

Скачивайте на UnionPeer.org фильмы через торрент без регистрации. Новинки кино в хорошем качестве через торрент. На UnionPeer.org можно скачать через торрент фильмы 2014 и 2015 годов. Самые новые фильмы.

Скачать торрент Любовь - проблема для отаку Otaku ni Koi wa Muzukashii бесплатно через .torrent фильм мультфильм сериал

Статистика раздачи
Размер:  1.14 GB   |    Зарегистрирован:  1 месяц 13 дней   |    .torrent скачан:  26 раз   |   
Раздают:  1  
   
загрузка...
 
Автор Сообщение

Galfimbul

avatar Galfimbul


Любовь - проблема для отаку
Оригинальное название: Otaku ni Koi wa Muzukashii
Английское название: Wotakoi: Love is Hard for Otaku
Период трансляции: c 13.04.2018 по 22.06.2018
Страна: Япония
Жанр: комедия, романтика, повседневность
Продолжительность: 11 эп., ~25 мин.
Режиссер: Хирайкэ Ёсимаса
Студия:
Перевод: Субтитры от laci & Благодир Юрий
Описание: У Наруми Момосэ есть страшная тайна: она – отаку, и в придачу поклонница яоя! Когда ее секрет стал известен на предыдущей работе, Наруми пришлось уволиться, и в первый день в новой компании она торжественно клянется, что убьет каждого, кто ее выдаст. Cначала ничто не предвещало беды, но не прошло и нескольких часов, как Наруми встретила в офисе Хиротаку Нифудзи, который знает о ней слишком много. Надо же было такому случиться, что геймер Хиротака, ее бывший одноклассник, работает в той же самой фирме! Пока Наруми лихорадочно соображала, как обезвредить друга детства, тот успел проболтаться при коллегах. Не было бы счастья, да несчастье помогло – оказалось, что не одна Наруми скрывает под деловым костюмом увлечения, которых сложно ожидать от взрослого ответственного человека!
1 Narumi and Hirotaka Meets Again, And...
2 Are We Now Dating?
3 Sales Event and Gamers Meetup
4 Is Mature Love as Difficult?
5 Introducing Naoya and Gamers Meetup (Part II)
6 Bleak Christmas
7 Online Gaming and Their Respective Nights
8 Weakness Is Thunder and Years of Insecurity
9 Go Out on a Date with Me!
10 Introducing Kou-kun and Online Gaming Revenge
11 Love Is Hard for Otaku

Качество видео: HDTVRip
Формат: MP4
Видео кодек: H.264
Аудио кодек: AAC
Видео: MPEG4 Video (H264) 480x272 23.976fps 512kbps
Аудио: AAC 48000Hz stereo 128kbps
Format : MPEG-4
Format profile : Base Media
Codec ID : isom (isom/avc1)
File size : 106 MiB
Duration : 22 min
Overall bit rate mode : Variable
Overall bit rate : 644 kb/s
Encoded date : UTC 2018-06-30 13:06:57
Tagged date : UTC 2018-06-30 13:06:57

Video
ID : 1
Format : AVC
Format/Info : Advanced Video Codec
Format profile : [email protected]
Format settings, CABAC : Yes
Format settings, ReFrames : 2 frames
Codec ID : avc1
Codec ID/Info : Advanced Video Coding
Duration : 22 min
Bit rate : 512 kb/s
Maximum bit rate : 2 047 kb/s
Width : 480 pixels
Height : 272 pixels
Display aspect ratio : 16:9
Frame rate mode : Constant
Frame rate : 23.976 (24000/1001) FPS
Color space : YUV
Chroma subsampling : 4:2:0
Bit depth : 8 bits
Scan type : Progressive
Bits/(Pixel*Frame) : 0.164
Stream size : 84.2 MiB (79%)
Writing library : x264 core 65 r999kMod cc51047
Encoding settings : cabac=1 / ref=2 / deblock=1:-2:-1 / analyse=0x1:0x131 / me=umh / subme=7 / psy_rd=1.0:0.0 / mixed_ref=1 / me_range=16 / chroma_me=1 / trellis=2 / 8x8dct=0 / cqm=0 / deadzone=21,11 / chroma_qp_offset=-2 / threads=2 / thread_queue=2 / nr=0 / decimate=0 / mbaff=0 / bframes=3 / b_pyramid=0 / b_adapt=1 / b_bias=0 / direct=3 / wpredb=1 / keyint=250 / keyint_min=25 / scenecut=40(pre) / rc=2pass / bitrate=512 / ratetol=1.0 / qcomp=0.60 / qpmin=10 / qpmax=51 / qpstep=4 / cplxblur=20.0 / qblur=0.5 / ip_ratio=1.40 / pb_ratio=1.30 / aq=1:1.00
Encoded date : UTC 2018-06-30 13:06:57
Tagged date : UTC 2018-06-30 13:07:04

Audio
ID : 2
Format : AAC
Format/Info : Advanced Audio Codec
Format profile : LC
Codec ID : 40
Duration : 22 min
Bit rate mode : Variable
Bit rate : 129 kb/s
Maximum bit rate : 146 kb/s
Channel(s) : 2 channels
Channel positions : Front: L R
Sampling rate : 48.0 kHz
Frame rate : 46.875 FPS (1024 spf)
Compression mode : Lossy
Stream size : 21.2 MiB (20%)
Encoded date : UTC 2018-06-30 13:07:01
Tagged date : UTC 2018-06-30 13:07:04


Трекер:  [ 04-Июл-2018 13:06 ]

  

Скачать .torrent

Размер .torrent файла 13 KB


Размер: 1.14 GB
Хэш (hash) релиза: cc25c4d725323150675ee9f69f3ed8f8497970e5
Подписка на обновления:

Еще никто не оставлял запись к записи скачать торрент Любовь - проблема для отаку Otaku ni Koi wa Muzukashii . Будь первым!

!Обратная связь